Foro para hablar sobre dragon ball, z y gt
 
ÍndicePortalCalendarioFAQBuscarGrupos de UsuariosRegistrarseConectarse

Comparte | 
 

 DBZ:El combate definitivo

Ver el tema anterior Ver el tema siguiente Ir abajo 
AutorMensaje
goku ssj 3
Terricola
Terricola
avatar

Cantidad de envíos : 12
Fecha de inscripción : 12/08/2008

MensajeTema: DBZ:El combate definitivo   Miér Ago 13, 2008 3:01 am

Choque contra el Super Guerrero!! La Victora es Mia
Dragon Ball Z Pelicula Nº 14
Dual Audio Latino/Japones


Descripcion:Comercializada en Argentina bajo el nombre de "El combate definitivo". Otra vez vemos a Broly, siendo esta su tercera y ultima aparición en las peliculas de Dragon Ball Z. Esta vez vuelve gracias a un enemigo de Mister Satan, quien lo reconstruye a base de una muestra de sangre y estarán para enfrentarlo Goten, Trunks y la androide 18. Los personajes están tomados del final del 25° Tenka Ichi Budo Kai (Torneo de las Artes Marciales).

Info:
Peso: 664 MB
Tipo: avi comprimido, unir con Hjsplit o FFSJ.

Info del Archivo: Complete name : 14 Choque contra el Super Guerrero!! La Victora es Mia\Movie 14.avi
Format : AVI
Format/Info : Audio Video Interleave
File size : 664 MiB
Duration : 46mn 45s
Overall bit rate : 1984 Kbps
Writing application : VirtualDubMod 1.5.10.1 (build 2366/release)
Writing library : VirtualDubMod build 2366/release
Video
Format : MPEG-4 Visual
Format profile : Simple@L3
Format settings, BVOP : Yes
Format settings, QPel : No
Format settings, GMC : No warppoints
Format settings, Matrix : Default
Codec ID : XVID
Codec ID/Hint : XviD
Duration : 46mn 45s
Bit rate : 1879 Kbps
Width : 640 pixels
Height : 480 pixels
Display aspect ratio : 4/3
Frame rate : 23.976 fps
Resolution : 8 bits
Colorimetry : 4:2:0
Scan type : Progressive
Bits/(Pixel*Frame) : 0.255
Stream size : 628 MiB (95%)
Writing library : XviD 1.0.3 (UTC 2004-12-20)
Audio
Format : MPEG Audio
Format version : Version 1
Format profile : Layer 3
Codec ID : 55
Codec ID/Hint : MP3
Duration : 46mn 41s
Bit rate mode : Constant
Bit rate : 96.0 Kbps
Channel(s) : 2 channels
Sampling rate : 48.0 KHz
Resolution : 16 bits
Video delay : 24ms
Stream size : 32.1 MiB (5%)
Alignment : Aligned on interleaves
Interleave, duration : 42 ms (1.00 video frame)
Interleave, preload duration : 504 ms


Capturas




Editado
Volver arriba Ir abajo
Ver perfil de usuario
kakaroto
Terricola
Terricola


Cantidad de envíos : 1
Fecha de inscripción : 11/09/2008

MensajeTema: Re: DBZ:El combate definitivo   Jue Sep 11, 2008 12:58 pm

ola me llmo francisco y espero pasarmelo bien en el foro
Volver arriba Ir abajo
Ver perfil de usuario
Goku SSJ
Super Saiyajin 2
Super Saiyajin 2


Cantidad de envíos : 291
Edad : 23
Localización : Tomando un Daikiri con Goku
Fecha de inscripción : 12/06/2008

MensajeTema: Re: DBZ:El combate definitivo   Jue Sep 11, 2008 6:58 pm

kakaroto escribió:
ola me llmo francisco y espero pasarmelo bien en el foro

hola, este no es el lugar para presentarte, si queres presentarte anda a nuevos guerreros, buena info goku
Volver arriba Ir abajo
Ver perfil de usuario http://palaciosaiyajin.activoforo.com
goku_ssj4
Cell imperfecto fase 2
Cell imperfecto fase 2
avatar

Cantidad de envíos : 187
Localización : En la casa de MR satan
Fecha de inscripción : 21/06/2008

MensajeTema: Re: DBZ:El combate definitivo   Jue Sep 11, 2008 10:33 pm

exelente info
muy completa
saludos

_________________
60% Fan de Goku
20% Fan de Gohan
10% Fan de Goten
10% Fan de Vegeta


Yo soy goku, el Saiyajin que los Derrotara.
Volver arriba Ir abajo
Ver perfil de usuario
Contenido patrocinado




MensajeTema: Re: DBZ:El combate definitivo   

Volver arriba Ir abajo
 
DBZ:El combate definitivo
Ver el tema anterior Ver el tema siguiente Volver arriba 
Página 1 de 1.
 Temas similares
-
» Locura por el Combate
» DUDA SOBRE LA REGLA "TACTICAS DE COMBATE" DE MARINES ESPACIALES"
» DUDA SOBRE LA REGLA "TACTICAS DE COMBATE" DE MARINES ESPACIALES"
» carros de combate 1/87 a 3 euros
» EL PILOTO DE COMBATE ( I PARTE)

Permisos de este foro:No puedes responder a temas en este foro.
Dominio Saiyajin :: Off Topic :: Cine y Tv-
Cambiar a: