Foro para hablar sobre dragon ball, z y gt
 
ÍndicePortalCalendarioFAQBuscarGrupos de UsuariosRegistrarseConectarse

Comparte | 
 

 DBZ:Guerra en los dos mundos

Ver el tema anterior Ver el tema siguiente Ir abajo 
AutorMensaje
goku ssj 3
Terricola
Terricola
avatar

Cantidad de envíos : 12
Fecha de inscripción : 12/08/2008

MensajeTema: DBZ:Guerra en los dos mundos   Miér Ago 13, 2008 2:54 am

Al Borde de la Via Lactea!! Tipo Tremendamente Terrible
Dragon Ball Z Pelicula Nº 12
Audio Latino


Descripcion:En este film se muestra como la explosión del Planeta de Kaio Sama libera a cinco seres malignos de increible poder liderados por un tal Boujack. En la Tierra un nuevo Torneo de las Artes Marciales se celebra y estos sujetos deciden medirse con los finalistas. Gohan será quien los elimine con su transformacion en Super Saiyajin Nivel 2. El diseño de los personajes está tomado poco después de la muerte de Cell.

Info:
Peso: 663 MB.
Tipo: avi comprimido, unir con Hjsplit o FFSJ.


Info del Archivo: Complete name :12 Al Borde de la Via Lactea!! Tipo Tremendamente Terrible\Movie 12.avi
Format : AVI
Format/Info : Audio Video Interleave
File size : 663 MiB
Duration : 50mn 12s
Overall bit rate : 1847 Kbps
Writing application : VirtualDubMod 1.5.10.1 (build 2366/release)
Writing library : VirtualDubMod build 2366/release
Video
Format : MPEG-4 Visual
Format profile : Simple@L3
Format settings, BVOP : Yes
Format settings, QPel : No
Format settings, GMC : No warppoints
Format settings, Matrix : Default
Codec ID : XVID
Codec ID/Hint : XviD
Duration : 50mn 12s
Bit rate : 1741 Kbps
Width : 640 pixels
Height : 480 pixels
Display aspect ratio : 4/3
Frame rate : 23.976 fps
Resolution : 8 bits
Colorimetry : 4:2:0
Scan type : Progressive
Bits/(Pixel*Frame) : 0.236
Stream size : 625 MiB (94%)
Writing library : XviD 1.0.1 (UTC 2004-06-05)
Audio
Format : MPEG Audio
Format version : Version 1
Format profile : Layer 3
Codec ID : 55
Codec ID/Hint : MP3
Duration : 50mn 3s
Bit rate mode : Constant
Bit rate : 96.0 Kbps
Channel(s) : 2 channels
Sampling rate : 44.1 KHz
Resolution : 16 bits
Video delay : 26ms
Stream size : 34.4 MiB (5%)
Alignment : Split accross interleaves
Interleave, duration : 42 ms (1.00 video frame)
Interleave, preload duration : 500 ms


Capturas


Editado
Volver arriba Ir abajo
Ver perfil de usuario
 
DBZ:Guerra en los dos mundos
Ver el tema anterior Ver el tema siguiente Volver arriba 
Página 1 de 1.
 Temas similares
-
» La Verdadera Guerra de los Mundos
» La Guerra de los Mundos: Goliath
» Sisenos Guerra dels Segadors...
» Cowboys & Aliens
» La guerra de España con los Estados Unidos y otros relatos, de Nilo Fabra

Permisos de este foro:No puedes responder a temas en este foro.
Dominio Saiyajin :: Off Topic :: Cine y Tv-
Cambiar a: