Foro para hablar sobre dragon ball, z y gt
 
ÍndicePortalCalendarioFAQBuscarGrupos de UsuariosRegistrarseConectarse

Comparte | 
 

 Dragon Ball z: la fusion

Ver el tema anterior Ver el tema siguiente Ir abajo 
AutorMensaje
goku ssj 3
Terricola
Terricola
avatar

Cantidad de envíos : 12
Fecha de inscripción : 12/08/2008

MensajeTema: Dragon Ball z: la fusion   Miér Ago 13, 2008 2:49 am

Vuelve la Fusion!! Goku y Vegeta
Dragon Ball Z Pelicula Nº 15
Dual Audio Latino/Japones


Descripcion:Estrenada en cines argentinos en diciembre del 99 como "Dragon Ball Z III, Guerra en los dos mundos" junto con la pelicula N°9 de DBZ: Al borde de la Via Lactea, la liberación de un terrible individuo. Esta pelicula nos muestra como uno de los empleados de Enma Daio Sama absorbe toda la maldad que se le quita a los cuerpos al morir. Asi este demonio se transformará en uno mucho más poderoso llamado Janenba. Al mismo tiempo, en la Tierra los muertos comienzan a levantarse, incluyendo a Freezer y a todos sus secuaces. Los personajes están tomados del momento posterior a la primera transformación de Goku en el Super Saiyajin Nivel 3.

Info:
Peso: 1.01 GiB
Tipo: avi comprimido, unir con Hjsplit o FFSJ.

Clic aquí para mas info


Info del Archivo: Complete name :15 Vuelve la Fusion!! Goku y Vegeta\La Fusión de Goku y Vegeta DVD Box [Lat-Jap].avi
Format : AVI
Format/Info : Audio Video Interleave
File size : 1.01 GiB
Duration : 50mn 42s
Overall bit rate : 2841 Kbps
Writing application : VirtualDubMod 1.5.10.2 (build 2540/release)
Writing library : VirtualDubMod build 2540/release
Video
Format : MPEG-4 Visual
Format profile : Streaming Video@L1
Format settings, BVOP : Yes
Format settings, QPel : No
Format settings, GMC : No warppoints
Format settings, Matrix : Default
Muxing mode : Packet Bitstream
Codec ID : XVID
Codec ID/Hint : XviD
Duration : 50mn 42s
Bit rate : 2571 Kbps
Width : 704 pixels
Height : 396 pixels
Display aspect ratio : 16/9
Frame rate : 23.976 fps
Resolution : 8 bits
Colorimetry : 4:2:0
Scan type : Progressive
Bits/(Pixel*Frame) : 0.385
Stream size : 933 MiB (90%)
Writing library : XviD 1.0.2 (UTC 2004-08-29)
Audio
Format : MPEG Audio
Format version : Version 1
Format profile : Layer 3
Codec ID : 55
Codec ID/Hint : MP3
Duration : 50mn 37s
Bit rate mode : Constant
Bit rate : 128 Kbps
Channel(s) : 2 channels
Sampling rate : 48.0 KHz
Resolution : 16 bits
Stream size : 46.4 MiB (4%)
Alignment : Aligned on interleaves
Interleave, duration : 42 ms (1.00 video frame)
Interleave, preload duration : 504 ms
Audio
Format : MPEG Audio
Format version : Version 1
Format profile : Layer 3
Codec ID : 55
Codec ID/Hint : MP3
Duration : 50mn 42s
Bit rate mode : Constant
Bit rate : 128 Kbps
Channel(s) : 2 channels
Sampling rate : 48.0 KHz
Resolution : 16 bits
Stream size : 46.4 MiB (5%)
Alignment : Split accross interleaves
Interleave, duration : 42 ms (1.00 video frame)
Interleave, preload duration : 500 ms


Capturas



Editado
Volver arriba Ir abajo
Ver perfil de usuario
broly_ssj 5
Freezer fase 1
Freezer fase 1
avatar

Cantidad de envíos : 64
Edad : 17
Fecha de inscripción : 23/03/2009

MensajeTema: Re: Dragon Ball z: la fusion   Lun Mar 23, 2009 2:31 am

la fusiones son:vegeto-gotenks-gogeta y gogeta ssj4
Volver arriba Ir abajo
Ver perfil de usuario http://dominiosaiyajin.activoforo.com/
 
Dragon Ball z: la fusion
Ver el tema anterior Ver el tema siguiente Volver arriba 
Página 1 de 1.
 Temas similares
-
» peliculas y trailers por fans: Grayson "La Muerte de Batman" - dragon ball z
» Dragon Ball Z: Ultimate Tenkaichi (2011)
» DRAGON BALL KAI
» PICCOLO DE DRAGON BALL Z..por peg..
» [NDS] Dragon Ball Origins

Permisos de este foro:No puedes responder a temas en este foro.
Dominio Saiyajin :: Off Topic :: Cine y Tv-
Cambiar a: