Foro para hablar sobre dragon ball, z y gt
 
ÍndicePortalCalendarioFAQBuscarGrupos de UsuariosRegistrarseConectarse

Comparte | 
 

 Dragon Ball z :El regreso del guerrero legendario

Ver el tema anterior Ver el tema siguiente Ir abajo 
AutorMensaje
goku ssj 3
Terricola
Terricola
avatar

Cantidad de envíos : 12
Fecha de inscripción : 12/08/2008

MensajeTema: Dragon Ball z :El regreso del guerrero legendario   Miér Ago 13, 2008 2:39 am

Los dos en Peligro!! El Super Gerrero No Duerme
Dragon Ball Z Pelicula Nº 13
Audio Latino

Descripcion:Comercializada en Argentina bajo el nombre de "El regreso de el Guerrero Legendario". Los dos que están en peligro, como el nombre lo indica, son Goten (segundo hijo de Goku) y Trunks (hijo de Bulma y Vegeta), ya que aqui vemos como se topan con un antiguo enemigo de sus padres: Broly. Esta es la primer pelicula correspondiente a la segunda saga de Dragon Ball Z, por eso los personajes tienen el diseño del principio de esa etapa, con Gohan adolescente y los pequeños Goten y Trunks.

Info:
Peso: 645 MB
Tipo: avi comprimido, unir con Hjsplit o FFSJ.

Clic aquí para mas info


Info del Archivo: Complete name :13 Los dos en Peligro!! El Super Gerrero No Duerme\Movie 13.avi
Format : AVI
Format/Info : Audio Video Interleave
File size : 645 MiB
Duration : 52mn 13s
Overall bit rate : 1727 Kbps
Writing application : VirtualDubMod 1.5.10.1 (build 2366/release)
Writing library : VirtualDubMod build 2366/release
Video
Format : MPEG-4 Visual
Format settings, BVOP : Yes
Format settings, QPel : No
Format settings, GMC : No warppoints
Format settings, Matrix : Default
Codec ID : DX50
Codec ID/Hint : DivX 5
Duration : 52mn 13s
Bit rate : 1587 Kbps
Width : 592 pixels
Height : 432 pixels
Display aspect ratio : 1.370
Frame rate : 29.970 fps
Resolution : 8 bits
Colorimetry : 4:2:0
Scan type : Progressive
Bits/(Pixel*Frame) : 0.207
Stream size : 593 MiB (92%)
Writing library : DivX 5.2.1 Alpha (UTC 2004-09-08)
Audio
Format : MPEG Audio
Format version : Version 1
Format profile : Layer 3
Codec ID : 55
Codec ID/Hint : MP3
Duration : 52mn 10s
Bit rate mode : Constant
Bit rate : 128 Kbps
Minimum bit rate : 128 Kbps
Channel(s) : 2 channels
Sampling rate : 44.1 KHz
Resolution : 16 bits
Stream size : 47.8 MiB (7%)
Alignment : Split accross interleaves
Interleave, duration : 33 ms (1.00 video frame)
Interleave, preload duration : 500 ms
Writing library : LAME3.96r
Encoding settings : CBR

Capturas


EDITADO
Volver arriba Ir abajo
Ver perfil de usuario
Vegeta
Fusion Metamor Nivel 1
Fusion Metamor Nivel 1


Cantidad de envíos : 404
Localización : Conquistando el universo
Fecha de inscripción : 10/06/2008

MensajeTema: Re: Dragon Ball z :El regreso del guerrero legendario   Miér Ago 13, 2008 3:23 am

Goku ssj3 muy buenos tus aportes pero no pongas los links para bajarlos...
Volver arriba Ir abajo
Ver perfil de usuario
 
Dragon Ball z :El regreso del guerrero legendario
Ver el tema anterior Ver el tema siguiente Volver arriba 
Página 1 de 1.
 Temas similares
-
» peliculas y trailers por fans: Grayson "La Muerte de Batman" - dragon ball z
» Dragon Ball Z: Ultimate Tenkaichi (2011)
» DRAGON BALL KAI
» PICCOLO DE DRAGON BALL Z..por peg..
» [NDS] Dragon Ball Origins

Permisos de este foro:No puedes responder a temas en este foro.
Dominio Saiyajin :: Off Topic :: Cine y Tv-
Cambiar a: