Foro para hablar sobre dragon ball, z y gt
 
ÍndicePortalCalendarioFAQBuscarGrupos de UsuariosRegistrarseConectarse

Comparte | 
 

 Dragon Ball z:Broly El legendario super saiyajin

Ver el tema anterior Ver el tema siguiente Ir abajo 
AutorMensaje
goku ssj 3
Terricola
Terricola
avatar

Cantidad de envíos : 12
Fecha de inscripción : 12/08/2008

MensajeTema: Dragon Ball z:Broly El legendario super saiyajin   Miér Ago 13, 2008 2:31 am

Explosion!! Infernal -Violenta- La Ultra Furiosa Batalla
Dragon Ball Z Pelicula Nº 11
Dual Audio Latino/Japones


Descripcion:Estrenada en cines argentinos en enero de 1999 como "Dragon Ball Z 2 el poder invencible" y posteriormente editada en video. En esta pelicula, Paragus (otro sobreviviente del planeta Vegeta) llevará engañados a Vegeta y a los demás a un planeta distante para que se enfrenten a Broly (el legendario Super Saiyajin) quien tiene un odio especial hacia Goku por haber nacido el mismo dia que él. El diseño de los personajes es el usado antes del torneo del Cell Game.

Info:
Peso: 700 MB
Tipo: avi comprimido, unir con Hjsplit o FFSJ.

Info del Archivo: Complete name :11 Explosion!! Infernal -Violenta- La Ultra Furiosa Batalla\Movie 11.avi
Format : AVI
Format/Info : Audio Video Interleave
File size : 700 MiB
Duration : 1h 11mn
Overall bit rate : 1364 Kbps
Writing application : VirtualDubMod 1.5.10.1 (build 2439/release)
Writing library : VirtualDubMod build 2439/release
Video
Format : MPEG-4 Visual
Format profile : Streaming Video@L1
Format settings, BVOP : Yes
Format settings, QPel : No
Format settings, GMC : No warppoints
Format settings, Matrix : Default
Muxing mode : Packet Bitstream
Codec ID : XVID
Codec ID/Hint : XviD
Duration : 1h 11mn
Bit rate : 1158 Kbps
Width : 576 pixels
Height : 432 pixels
Display aspect ratio : 4/3
Frame rate : 23.976 fps
Resolution : 8 bits
Colorimetry : 4:2:0
Scan type : Progressive
Bits/(Pixel*Frame) : 0.194
Stream size : 595 MiB (85%)
Writing library : XviD 1.0.2 (UTC 2004-08-29)
Audio
Format : MPEG Audio
Format version : Version 1
Format profile : Layer 3
Codec ID : 55
Codec ID/Hint : MP3
Duration : 1h 11mn
Bit rate mode : Constant
Bit rate : 96.0 Kbps
Channel(s) : 2 channels
Sampling rate : 44.1 KHz
Resolution : 16 bits
Video delay : 26ms
Stream size : 49.3 MiB (7%)
Alignment : Split accross interleaves
Interleave, duration : 42 ms (1.00 video frame)
Interleave, preload duration : 500 ms
Audio
Format : MPEG Audio
Format version : Version 1
Format profile : Layer 3
Codec ID : 55
Codec ID/Hint : MP3
Duration : 1h 11mn
Bit rate mode : Constant
Bit rate : 96.0 Kbps
Channel(s) : 2 channels
Sampling rate : 44.1 KHz
Resolution : 16 bits
Video delay : 26ms
Stream size : 49.3 MiB (7%)
Alignment : Split accross interleaves
Interleave, duration : 42 ms (1.00 video frame)
Interleave, preload duration : 500 ms
Writing library : LAME3.92

Password: phjperro
Megaupload
Parte 1 megaupload.com F30N9Y8Z
Parte 2 megaupload.com FHIQYX48
Parte 3 megaupload.com UU5ZS7EY
Parte 4 megaupload.com ZPHYJ6PW


Última edición por goku ssj 3 el Miér Ago 13, 2008 2:44 am, editado 1 vez
Volver arriba Ir abajo
Ver perfil de usuario
Vegeta
Fusion Metamor Nivel 1
Fusion Metamor Nivel 1


Cantidad de envíos : 404
Localización : Conquistando el universo
Fecha de inscripción : 10/06/2008

MensajeTema: Re: Dragon Ball z:Broly El legendario super saiyajin   Miér Ago 13, 2008 2:34 am

Super aporte !!, sabés, prefiero que le pases los links para bajarlo por mp

Saludos !!
Volver arriba Ir abajo
Ver perfil de usuario
 
Dragon Ball z:Broly El legendario super saiyajin
Ver el tema anterior Ver el tema siguiente Volver arriba 
Página 1 de 1.
 Temas similares
-
» Dragon ball Super
» ¿Por que es tan Mala la animacion de Toei Animation en Dragon Ball Super?
» Saint Seiya Soul Of Gold Vs Dragon Ball Super
» [SPOILER/CRITICA] Dragon Ball Super
» Se confirma que Trunks del futuro aparecera en dragon ball super

Permisos de este foro:No puedes responder a temas en este foro.
Dominio Saiyajin :: Off Topic :: Cine y Tv-
Cambiar a: